#TITLE:Reasons to Live;
#SUBTITLE:;
#ARTIST:DragonForce;
#TITLETRANSLIT:;
#SUBTITLETRANSLIT:;
#ARTISTTRANSLIT:;
#CREDIT:;
#BANNER:banner.png;
#BACKGROUND:bg.jpg;
#LYRICSPATH:;
#CDTITLE:cd.png;
#MUSIC:DragonForce - Reasons to Live.mp3;
#OFFSET:-0.211;
#SAMPLESTART:63.179;
#SAMPLELENGTH:13.960;
#SELECTABLE:YES;
#BPMS:0.000=175.000,496.000=108.000,560.000=175.000,1040.000=155.000;
#STOPS:;
#BGCHANGES:;
// cache tags:
#FIRSTBEAT:12.000;
#LASTBEAT:1072.000;
#SONGFILENAME:Songs/Music V.I.P ^_^/Reasons to Live/Reasons to Live.sm;
#HASMUSIC:1;
#HASBANNER:1;
#MUSICLENGTH:385.755;
// end cache tags

//---------------dance-single - ----------------
#NOTES:
     dance-single:
     :
     Challenge:
     13:
     1.000,1.000,0.578,0.741,1.000,2576.000,223.000,286.000,0.000,29.000:
0000
0000
0000
0000
,
0000
0000
0000
0000
,
0000
0000
0000
0000
,
0210
0001
0010
0001
0010
0001
0010
0001
0010
0001
0010
0001
0010
0001
0010
0001
,
2310
0001
0010
0001
0010
0001
0010
0001
0010
0001
0010
0001
0010
0001
0010
0001
,
3110
0110
0110
0110
,
2200
0000
0000
0000
0000
0000
0000
3300
,
0021
1000
0001
1000
0001
1000
0001
1000
0001
1000
0001
1000
0001
1000
0001
1000
,
0231
1000
0001
1000
0001
1000
0001
1000
0001
1000
0001
1000
0001
1000
0001
1000
,
0311
0011
0000
0011
0011
0000
0011
0011
,
0000
0011
0011
0000
0000
0000
0000
0000
,
0210
0001
0010
0001
0010
0001
0010
0001
0010
0001
0010
0001
0010
0001
0010
0001
,
2310
0001
0010
0001
0010
0001
0010
0001
0010
0001
0010
0001
0010
0001
0010
0001
,
3110
0110
0110
0110
,
2200
0000
0000
0000
0000
0000
0000
3300
,
0021
1000
0001
1000
0001
1000
0001
1000
0001
1000
0001
1000
0001
1000
0001
1000
,
0231
1000
0001
1000
0001
1000
0001
1000
0001
1000
0001
1000
0001
1000
0001
1000
,
0311
0011
0000
0011
0011
0000
0011
0011
,
0000
0011
0011
0000
0000
0000
0000
0000
,
0000
0000
0000
0000
,
0020
0000
0130
0001
0010
1000
0100
0001
0100
0010
1000
0100
0001
0010
0100
0001
,
1000
0100
0020
0000
0000
0000
2030
0000
3200
0000
0301
1000
0100
0010
0001
1000
,
0002
0000
0013
0100
0001
0010
1000
0100
0001
0010
1000
0100
1000
0001
0010
0100
,
0001
0010
0100
1000
0001
0100
0010
1000
0001
0100
0010
1000
0001
0100
0010
1000
,
0200
0000
0310
0001
0100
0010
1000
0001
0100
0010
0001
1000
0100
0010
1000
0001
,
0100
0010
2000
0000
0000
0000
3200
0000
2300
0000
3100
0010
1000
0001
0100
0010
,
1000
0001
0100
0010
1000
0100
0010
0001
1000
0010
0100
0010
1000
0001
0010
0100
,
0012
0000
0010
0100
0010
0100
0010
0000
0010
0100
0010
0100
0010
1000
0010
1000
,
0113
0000
0000
0000
,
0011
0000
0000
0000
,
0101
0010
0100
0010
0100
0010
0100
0010
0100
0010
0100
0010
0100
0010
0100
0010
,
2001
0010
0001
0010
0100
0010
3100
0010
0102
1000
0100
1000
0100
0010
0103
0010
,
0100
0001
1000
0100
0001
1000
0010
0100
0001
1000
0010
0100
0001
0100
0010
0100
,
2010
0001
3100
0001
1000
0010
0100
0001
1000
0010
0100
0001
1000
0010
0100
0001
,
1000
0100
1000
0100
0010
0001
0010
0001
0100
1000
0100
1000
0010
0001
0010
0001
,
1000
0000
1000
0000
1000
0000
1000
0000
0100
0010
0100
0001
0100
0010
0100
0001
,
2100
0010
0100
0000
0001
0100
0001
0000
0010
0001
0010
3000
2001
3100
2001
0000
,
3102
0010
0100
0000
0010
1000
0010
0000
0100
0010
0100
0000
1000
0010
1000
0000
,
0213
1000
0010
0000
1000
0001
1000
0000
0010
0001
0010
0000
0001
0010
0001
0000
,
1320
0001
1000
0000
0100
1000
0100
0000
1000
0001
1000
0000
0001
0100
0001
0000
,
2030
0000
3010
0100
0010
1000
0001
0100
0010
1000
0010
1000
0001
0100
0010
0100
,
0020
0000
0031
0100
0010
1000
0010
1000
0001
0100
0010
1000
0010
0100
0001
1000
,
0100
0000
0100
0010
0100
0010
0100
0000
0100
0010
0100
0010
0100
1000
0100
1000
,
0100
0010
0100
0010
0001
0000
0100
0010
0100
0010
0001
0000
0100
0010
0100
0010
,
1100
1100
1100
1100
,
1100
0000
0000
0000
,
1000
0001
0100
0001
1000
0010
0100
0001
1000
0001
0100
0010
1000
0010
0100
0001
,
0200
0000
1300
0001
0100
0010
0100
0001
1000
0010
0100
0001
0100
0001
1000
0010
,
1200
0010
1000
0001
0010
0001
1000
0010
1000
0010
1000
0001
0010
0001
1000
0001
,
2310
0001
0010
0100
0001
0100
0001
0010
0100
0001
0100
0010
0100
0010
0100
0010
,
3100
0001
1000
0010
1000
0001
0010
0100
1000
0001
0100
0001
1000
0010
0100
0001
,
2000
0000
3001
0100
0010
1000
0002
0000
1003
0100
0010
0001
1000
0001
0100
0010
,
1100
0000
1100
0000
1100
0000
0000
1100
,
0000
0000
0000
0000
0010
0000
0000
0000
0010
0000
0001
0000
0010
0000
1000
0000
0100
0000
1000
0000
0100
0000
1000
0000
0010
0001
0000
0000
0000
0000
0000
0000
,
0001
0000
0010
0000
,
0100
0000
1000
0000
,
1100
0011
1100
0011
1100
0011
1100
0011
1100
0011
1100
0011
1100
0000
0000
0000
0000
0000
0000
0000
0000
0000
0000
0000
,
1100
0000
0000
0000
,
1020
0001
0130
0001
1000
0010
0100
0001
1000
0010
1000
0001
0100
0001
0100
0001
,
1200
0010
1300
0001
1000
0010
0100
0010
1000
0001
1000
0010
0100
0001
1000
0010
,
1002
0010
0103
0010
1000
0001
0100
0010
1000
0001
0100
0001
1000
0010
0100
0001
,
1000
0010
0100
0010
1000
0001
0100
0001
2100
0010
3000
0000
1200
0000
0300
0000
,
0120
0001
1000
0001
,
2130
0001
0100
0010
,
3102
0010
1003
0001
1000
0001
0010
0100
2010
0001
3100
0001
0100
0010
1000
0001
,
2100
0010
3102
0010
0103
0000
0100
0010
2100
0010
3000
0000
2100
0010
3000
0000
,
0002
0000
0000
0000
0000
0000
0000
0000
0000
0000
0000
0003
0020
0030
0002
0003
,
0200
0300
0001
0010
0100
0000
0200
0000
0000
0000
0000
0300
2000
3000
0200
0300
,
0020
0000
0032
0000
0000
0003
0200
0000
0000
0000
0000
0300
2000
0000
0000
3000
,
0100
0010
0100
0010
0100
0010
0100
0001
0100
0001
0100
0001
0100
0010
0100
0010
0100
0010
0200
0000
0000
0000
0000
0000
,
0302
0000
0000
0000
0000
0000
0000
0000
0000
0000
0000
0003
0020
0030
0002
0003
,
0200
0300
0001
0010
0200
0300
2000
0000
0000
0000
0000
3000
2000
3000
0200
0300
,
0002
0000
0000
0023
0000
0000
0032
0000
,
0203
0300
0000
0000
,
0020
0000
0130
0001
0010
1000
0100
0001
0100
0010
1000
0100
0001
0010
0100
0001
,
1000
0100
0020
0000
0000
0000
0032
0000
0203
0000
0301
0010
0100
0010
0001
0010
,
0002
0000
0013
0100
0001
0010
1000
0100
0001
0010
1000
0100
1000
0001
0010
0100
,
0001
0010
0100
1000
0100
0010
0100
1000
0100
0010
0001
0010
0100
0010
0001
0010
0100
0010
0001
0010
0100
1000
0100
0010
,
0200
0000
0310
0001
0100
0010
1000
0001
0100
0010
0001
1000
0100
0010
1000
0001
,
0100
0010
2000
0000
0000
0000
3200
0000
2300
0000
3100
0010
0001
0010
0100
1000
,
0100
0010
0100
0010
0100
0010
0100
0010
0100
0010
0100
0010
0100
0010
0100
0010
,
0102
1000
0100
1000
0100
1000
0100
1000
0100
1000
0100
1000
0100
0010
0100
0010
,
1103
0000
0000
0000
,
1100
0000
0000
0000
,
0101
0010
0100
0010
0100
0010
0100
0010
0100
0010
0100
0010
0100
0010
0100
0010
,
2001
0010
0001
0010
0100
0010
3100
0010
0102
1000
0100
1000
0100
0010
0103
0010
,
0100
0001
1000
0100
0001
1000
0010
0100
0001
1000
0010
0100
0001
0100
0010
0100
,
1020
0001
0130
0001
1000
0010
0100
0001
1000
0010
0100
0001
1000
0010
0100
0001
,
1000
0100
1000
0100
0010
0001
0010
0001
0100
1000
0100
1000
0010
0001
0010
0001
,
1000
1000
1000
1000
1000
0000
0000
0000
,
0012
0100
0010
0000
1000
0010
1000
0000
0100
1000
0100
0000
1203
0310
1200
0300
,
2010
0100
0010
0000
0100
0001
0100
0000
0010
0100
0010
0000
0001
0100
0001
0000
,
3120
0001
0100
0000
0001
1000
0001
0000
0100
1000
0100
0000
1000
0100
1000
0000
,
0231
1000
0001
0000
0010
0001
0010
0000
0001
1000
0001
0000
1000
0010
1000
0000
,
2300
0000
3100
0001
1000
0100
0010
0001
0100
0010
0100
0001
0010
0100
1000
0001
,
2000
0000
3100
0001
1000
0010
1000
0100
0010
0001
0100
0001
0100
0001
1000
0001
,
0100
0010
0100
0010
0001
0000
0100
0010
0100
0010
0001
0000
0100
0010
0100
0010
,
1000
0100
1000
0100
1000
0100
1000
0100
1000
0100
1000
0100
1000
0100
1000
0100
,
1001
0000
0000
0000
,
0110
0000
0000
0000
,
1000
0001
0100
0001
1000
0010
0100
0001
1000
0001
0100
0010
1000
0010
0100
0001
,
0200
0000
1300
0001
0100
0010
0100
0001
1000
0010
0100
0001
0100
0001
1000
0010
,
0102
0010
1000
0100
0010
0100
1000
0010
1000
0010
1000
0100
0010
0100
1000
0100
,
2013
0100
0010
0100
0010
0100
0010
0000
0010
0100
0010
0100
0010
0001
0010
0001
,
3010
0100
0010
1000
0100
0010
0001
0100
0010
1000
0010
0100
0001
1000
0010
0100
,
0002
0000
0013
0100
0010
1000
0020
0000
0031
1000
0001
0010
0100
1000
0010
1000
,
0011
0000
0011
0000
0011
0000
0000
0011
,
0100
0000
0010
0000
0100
0000
0010
0000
0100
0000
1000
0000
0100
0000
0010
0000
0100
0000
0010
0000
0100
0000
1000
0000
0010
0001
0000
0000
0000
0000
0000
0000
,
0001
0000
0010
0000
,
0100
0000
1000
0000
,
0110
1001
0110
1001
0110
1001
0110
1001
0110
1001
0110
1001
0110
0000
0000
0000
0000
0000
0000
0000
0000
0000
0000
0000
,
1100
0000
0000
0000
,
0210
1000
0301
1000
0001
0010
0100
1000
0010
0100
0001
1000
0010
1000
0001
1000
,
0012
0100
0013
1000
0100
0010
0001
0100
0010
1000
0001
0010
0100
1000
0001
1000
,
0201
0010
0301
1000
0010
1000
0001
0100
0001
1000
0100
0010
0001
0100
0001
1000
,
0100
0010
0100
0010
0001
0000
0000
0000
2100
0010
3100
0010
0201
0000
0300
0000
,
2001
0100
0010
0100
,
3012
0100
1000
0100
,
2013
0100
0001
0010
,
0001
0100
3201
0321
,
0130
0001
1000
0100
0010
0100
0010
0001
1000
0001
1000
0100
0010
0100
0010
0001
,
0010
0100
0010
0001
0010
0001
0010
0100
1000
0100
1000
0001
0010
0001
0010
0100
,
0002
0000
0000
0000
,
1103
0000
0000
0000
,
0011
0000
0000
0000
0010
0000
0001
0000
0010
0000
0000
0000
0220
0000
0000
0330
,
0011
0000
0000
0000
0010
0000
0001
0000
0010
0000
0000
0000
0220
0000
0000
0330
,
0101
0000
0000
0000
0100
0000
0010
0000
0100
0000
0000
0000
0220
0000
0000
0330
,
0101
0000
0000
0000
0100
0000
0010
0000
0100
0000
0000
0000
0220
0000
0000
0330
,
1010
0000
0000
0000
1000
0000
0010
0000
1000
0000
0000
0000
0220
0000
0000
0330
,
1100
0000
0000
0000
1000
0000
0100
0000
1000
0000
0000
0000
2200
0000
0000
3300
,
0100
0010
0100
0010
0100
0010
0100
0010
,
0100
0010
0100
0010
0100
0010
0100
0010
,
0011
0000
0000
0000
0010
0000
0001
0000
0010
0000
0000
0000
0220
0000
0000
0330
,
0011
0000
0000
0000
0010
0000
0001
0000
0010
0000
0000
0000
0220
0000
0000
0330
,
0101
0000
0000
0000
0100
0000
0010
0000
0100
0000
0000
0000
0220
0000
0000
0330
,
0101
0000
0000
0000
0100
0000
0010
0000
0100
0000
0000
0000
0220
0000
0000
0330
,
1010
0000
0000
0000
1000
0000
0010
0000
1000
0000
0000
0000
0220
0000
0000
0330
,
1100
0000
0000
0000
1000
0000
0100
0000
1000
0000
0000
0000
2200
0000
0000
3300
,
0100
0010
0100
0010
0100
0010
0100
0010
,
0100
0010
0100
0010
0100
0010
0100
0010
,
0100
0000
0010
0000
0001
0000
0100
0010
,
0000
0001
0000
0010
0100
0000
2000
3000
,
0100
0000
0010
0000
0001
0000
0100
0010
,
0000
0000
0001
0000
0000
0000
0010
0000
0002
0000
0000
0000
0000
0000
0000
0003
,
0100
0000
0010
0000
0001
0000
0100
0001
,
0000
0010
0000
0100
0000
1000
0000
0000
,
0200
0300
0000
0000
0000
0000
0000
0000
0020
0030
0000
0000
0000
0000
0000
0000
0002
0003
0000
0000
0000
0000
0000
0000
1000
0000
0000
0000
0110
0000
0000
0000
,
0000
0110
0000
0110
0000
0110
0000
0000
,
0002
0000
0000
0000
0000
0003
0020
0000
0000
0000
0000
0030
0002
0003
0020
0030
,
0200
0000
0000
0000
0000
0300
0002
0003
0020
0030
0200
0300
2000
3000
2000
3000
,
0002
0000
0000
0000
0000
0000
0000
0000
0000
0003
0020
0030
0002
0000
0000
0000
,
0000
0003
0020
0030
0002
0003
0020
0030
0002
0000
0003
0020
0000
0030
0010
0100
,
2000
0000
0000
0000
0000
0000
0000
0000
0000
0000
0000
3000
0010
0100
1000
0100
,
0020
0030
2000
3000
0200
0300
0020
0030
0002
0003
0002
0003
0020
0030
0200
0300
,
0002
0000
0000
0000
0000
0003
0020
0000
0000
0000
0000
0030
0200
0300
0020
0030
,
0200
0300
2000
0000
0000
3000
0002
0003
0020
0030
0002
0003
0020
0030
0200
0300
,
0020
0000
0000
0000
0000
0030
0200
0000
0000
0300
0020
0030
0200
0000
0000
0000
,
0000
0300
2000
3000
0020
0030
0200
0300
2000
3000
0200
0300
0020
0030
0002
0003
,
0002
0003
0020
0030
0200
0300
0001
0000
0000
0000
0002
0000
0000
0003
0200
0300
,
0010
0000
0000
0000
2000
0000
0000
0000
0000
3000
2000
3000
0200
0300
0010
0000
,
0000
0000
0000
0000
0002
0000
0000
0000
0000
0000
0000
0003
0010
0000
0000
0000
,
0200
0000
0000
0000
0000
0000
0000
0000
0000
0000
0300
0000
2000
0000
0000
0000
0000
0000
0000
0000
0000
0000
3000
0000
1000
0000
0100
0000
1000
0100
0000
0000
,
0002
0000
0000
0003
0002
0003
0001
0000
0000
0000
0010
0000
0000
0000
0100
0000
,
0000
1000
0000
1000
0100
1000
0100
0010
,
0002
0000
0000
0000
0003
0000
0010
0000
0000
0000
0000
1000
0200
0000
0000
0000
,
0300
0001
0001
0100
0010
0100
0010
0001
,
1000
0100
0010
0100
1000
0100
0010
0001
1000
0100
0010
0100
1000
0001
0010
0001
,
1000
0100
0010
0001
1000
0100
1000
0001
0020
0000
0030
0200
0000
0300
0002
0000
,
0003
0000
0010
0001
0000
0010
0000
0100
,
0000
1000
0100
1000
0010
1000
0001
1000
,
0001
0000
0000
0010
0000
0000
0100
0000
0000
1000
0000
0000
0100
0000
0000
1000
0000
0000
0001
0000
0000
0010
0000
0000
0100
0000
0000
1000
0000
0000
0100
0000
0000
1000
0000
0000
0100
0000
0000
0010
0000
0000
0100
0000
0010
0000
0001
0000
,
1000
0000
0000
0100
0000
0000
0010
0000
0000
0001
0000
0000
0010
0000
0000
0001
0000
0000
1000
0000
0000
0100
0000
0000
0010
0000
0001
0000
0010
0000
0100
0000
0000
0001
0000
0000
0100
0000
0010
0000
0001
0000
0010
0000
0000
0100
0000
0000
,
0010
0010
1000
0200
0300
0100
1000
0200
,
0300
0100
1000
0100
0010
0100
1000
1000
,
0010
0100
1000
0100
0010
0001
1000
0100
0010
0001
1000
0100
1000
0001
0010
0100
,
0010
0000
1000
0000
0000
0000
0020
0000
0000
0030
0020
0030
0020
0030
0020
0030
,
1000
0100
0010
0001
0010
0001
1000
0100
0010
0100
1000
0100
0010
0001
0010
0100
,
0010
0001
0010
0100
1000
0100
0010
0100
0010
0001
1000
0100
1000
0100
0010
0100
1000
0100
1000
0001
0010
0100
0010
0100
,
1000
0100
0010
1000
0000
0000
0100
0000
0000
0000
0000
0000
0010
0000
0000
0000
0000
0000
0001
0010
0100
0001
0000
0000
,
0010
0000
0000
0001
0000
0100
0000
1000
,
0002
0000
0003
0000
1000
0000
0100
0000
0020
0000
0000
0030
0002
0000
0000
0003
,
0001
0000
0010
0000
0100
0000
0010
0000
0002
0000
0000
0003
0100
0000
0010
0000
,
0002
0000
0000
0003
0001
0000
0001
0000
0001
0000
0010
0000
0100
0000
1000
0000
,
0200
0300
0020
0030
2000
3000
0100
0000
,
2000
0000
0000
3000
0100
0000
0010
0000
0002
0000
0000
0003
1000
0000
0100
0000
,
1000
0000
0010
0000
1000
0000
0010
0000
0100
0000
0010
0000
0002
0000
0000
0003
,
0020
0000
0000
0000
0000
0030
0200
0000
0000
0000
0000
0300
2000
0000
0000
0000
,
0000
3000
0200
0000
0000
0000
0000
0300
2000
0000
0000
3000
0200
0000
0000
0300
,
0010
0100
0010
0001
1000
0100
0010
0001
0010
0100
0010
0001
0010
0100
1000
0100
0010
0001
0010
0001
0010
0100
0010
0100
,
0010
0001
0010
0001
1000
0100
0010
0100
0010
0100
1000
0100
0010
0001
0010
0001
0010
0100
0010
0001
0010
0100
0010
0100
,
1000
0100
0010
0100
0010
0100
1000
0100
0010
0001
1000
0100
0010
0100
0010
0100
1000
0100
1000
0100
0010
0100
1000
0001
,
0010
0100
0010
0100
1000
0100
0010
0100
1000
0100
1000
0100
0010
0001
0010
0100
1000
0100
1000
0100
0010
0100
1000
0100
,
1000
0100
0010
0100
1000
0100
0010
0001
0010
0001
0010
0100
1000
0001
0010
0001
,
0010
0100
0010
0100
0010
0001
1000
0100
0010
0100
0010
0100
1000
0000
0000
0000
,
2000
0000
0000
0000
0000
3000
0200
0000
0000
0000
0000
0300
0020
0000
0000
0000
,
0000
0030
0002
0000
0000
0000
0000
0003
0200
0000
0000
0300
2000
0000
0000
3000
,
0022
0000
0000
0000
0000
0000
0000
0033
0220
0000
0000
0330
2020
0000
0000
0000
,
0000
0000
0000
0000
0000
0000
0000
0000
0000
0000
0000
0000
0000
0000
3030
0000
2020
0000
0000
0000
0000
0000
3030
0000
2020
0000
0000
0000
0000
3030
0000
1010
,
0202
0000
0000
0000
0000
0000
0000
0303
0220
0000
0000
0330
2200
0000
0000
0000
,
0000
0000
0000
3300
1000
0100
0010
0100
0010
0001
0010
0100
0010
0001
0010
0100
,
1000
0001
0010
0001
1000
0100
0010
0100
1000
0100
1000
0001
0010
0001
1000
0100
,
0010
0001
0010
0001
1000
0100
0010
0100
1000
0100
0010
0001
0010
0100
0010
0100
,
0002
0000
0000
0000
0000
0003
1000
0000
0100
0000
0010
0000
,
1000
0001
1000
0001
1000
0001
1000
0001
1000
0001
1000
0001
1000
0001
1000
0001
1000
0001
1000
0001
1000
0001
1000
0001
1000
0001
1000
0001
1000
0001
1000
0001
,
1000
0000
0000
0000
0100
0000
0000
0000
0010
0000
0000
0000
0001
0000
0000
0000
0010
0000
0000
0000
0001
0000
0000
0000
0010
0000
0000
0001
0000
0000
0010
0000
0000
0100
0000
0000
0010
0000
0000
0000
0001
0000
0000
0000
1000
0000
0000
0000
,
0100
0000
0000
1000
0000
0000
0100
0000
0000
0010
0000
0000
0001
0000
0000
0010
0000
0000
0100
0000
0000
1000
0000
0000
0100
0000
0000
0010
0000
0000
0001
0000
0000
0010
0000
0000
0100
0000
0000
0000
0010
0000
0000
0000
1000
0000
0000
0000
,
0010
0000
0000
0000
0100
0000
0000
0000
1000
0000
0000
0000
0001
0010
0100
0000
0000
0100
0000
0000
1000
0000
0000
0000
,
0002
0000
0000
0000
0000
0000
0003
0010
0200
0000
0000
0000
0000
0000
0000
0300
,
1000
0100
0010
0001
0010
0001
1000
0100
1000
0001
0010
0100
0010
0001
0010
0001
,
1000
0000
0000
0100
0000
0000
0010
0000
0000
0001
0000
0000
0010
0000
0000
0100
0000
0000
0010
0000
0000
0001
0000
0000
0010
0000
0100
0000
0010
0000
0100
0000
1000
0000
0100
0000
0010
0000
0001
0000
0010
0000
0100
0000
0010
0000
0100
0000
,
0001
0010
0100
1000
0001
0010
0100
1000
0001
0010
0100
1000
0001
0010
0100
1000
,
0010
0100
0010
0001
0010
0100
0010
0001
0010
0100
0010
0001
0010
0100
0010
0001
,
1100
0000
1100
0000
1010
1001
1001
0110
,
0101
0000
0000
0000
,
0020
0000
0000
0000
0000
0030
0200
0000
0000
0000
0000
0300
2000
0000
0000
3000
,
0100
0010
0001
0010
0100
0010
0100
1000
0100
1000
0100
0010
0001
1000
0100
0010
0001
0010
0100
1000
0001
0010
0100
0010
,
0001
0000
0010
0000
0100
0000
0010
0000
1000
0000
0010
0000
,
0200
0000
0300
0000
2000
0000
3000
0000
0002
0000
0000
0000
0000
0000
0000
0003
,
1000
0001
0100
0001
1000
0010
1000
0001
0100
0010
1000
0010
1000
0001
1000
0001
,
0020
0030
1000
0001
0010
0001
1000
0100
0010
0001
0010
0001
1000
0100
1000
0001
,
0010
0100
1000
0100
0010
0001
0010
0001
0010
0100
0010
0100
1000
0100
0010
0001
0010
0100
1000
0100
1000
0100
0010
0001
,
0010
0000
0100
0000
1000
0000
0100
0000
0000
0010
0000
0000
,
0001
0000
0000
0000
0000
0000
0000
0000
0010
0000
0000
0000
0000
0000
0000
0000
0100
0000
0000
0000
0000
0000
0000
0000
0002
0000
0000
0000
0000
0000
0000
0000
0000
0000
0000
0000
0000
0000
0000
0000
0000
0000
0003
0000
0000
0010
0000
0000
,
0001
0000
0010
0000
0100
0000
0001
0000
0100
0000
0001
0000
,
0002
0000
0000
0000
0000
0000
0000
0000
0000
0003
1000
0000
0100
0000
0010
0000
,
1000
0100
0010
0100
0010
0001
0010
0100
1000
0100
0010
0001
0010
0100
1000
0100
1000
0100
0010
0001
0010
0100
1000
0100
,
1000
0100
0010
0001
0010
0001
1000
0100
0010
0100
1000
0100
0010
0001
0010
0100
,
1000
0001
0010
0001
1000
0100
0010
0001
0010
0100
0010
0100
1000
0100
0010
0001
,
0010
0000
0100
0000
0100
0000
1000
0000
0100
0000
0100
0000
,
0002
0000
0003
0000
,
1020
0001
1000
0000
0100
1000
0100
0000
0001
0100
0001
0030
2001
3100
2001
3000
,
0102
0010
0100
0000
0010
1000
0010
0000
0100
0010
0100
0000
1000
0010
1000
0000
,
2013
0100
0010
0000
0010
0001
0010
0000
0001
0100
0001
0000
0010
0100
0010
0000
,
3120
0001
0100
0000
0100
1000
0100
0000
1000
0001
1000
0000
0001
0100
0001
0000
,
0032
0000
0013
1000
0010
0100
0001
0100
0010
1000
0010
0100
0001
0100
0010
0100
,
0020
0000
0031
0100
0010
1000
0010
1000
0001
0100
0010
1000
0010
0100
0001
0100
,
0010
0001
0010
0001
0010
0001
0010
0001
0010
0001
0010
0001
0010
0001
0010
0001
,
0100
0010
0100
0010
0100
0010
0100
0010
0100
0010
0100
0010
0100
0010
0100
0010
,
1100
1100
1100
1100
,
1100
0000
0000
0000
,
0100
0001
1000
0010
1000
0100
0010
0001
1000
0010
0100
0001
1000
0010
0100
0010
,
2000
0000
3100
0001
0010
0100
1000
0001
0100
0001
1000
0010
0100
0001
0100
0010
,
0102
1000
0100
0010
1000
0010
0100
1000
0100
1000
0100
0010
1000
0010
0100
0010
,
1203
0010
0001
0010
1000
0010
0001
1000
0001
0010
1000
0001
1000
0001
1000
0001
,
1300
0010
1000
0001
0100
0010
1000
0001
0010
0100
1000
0001
0100
0010
1000
0001
,
2000
0000
3100
0001
1000
0010
2000
0000
3100
0001
1000
0100
0010
0001
1000
0001
,
1010
0000
1010
0000
1010
0000
0000
1010
,
0000
0000
0000
0000
1000
0000
0000
0000
0010
0000
0001
0000
0010
0000
1000
0000
0100
0000
1000
0000
0100
0000
1000
0000
0010
0001
0000
0000
0000
0000
0000
0000
,
1000
0010
0100
0010
0100
0001
1000
0001
1000
0010
0100
0001
1000
0001
1000
0010
,
1000
0010
0100
0001
1000
0001
0100
0010
1000
0010
0100
0001
0100
0010
0100
0001
,
1100
0011
1100
0011
1100
0011
1100
0011
1100
0011
1100
0011
1100
0011
1100
0011
1100
0011
1100
0011
1100
0011
1100
0011
,
1100
0000
0000
0000
,
1000
0100
0010
0001
0000
0000
0000
0000
,
1000
0100
0010
0001
0000
0000
0000
0000
,
1000
0100
0010
0001
0000
0010
0100
1000
,
0010
0001
0000
0010
0001
0010
0100
1000
,
1000
0100
0010
0001
0000
0000
1000
0000
,
1000
0100
0010
0001
0000
0000
1000
0000
,
1000
0100
0010
0001
0000
0010
0100
1000
,
0010
0001
0000
0010
0001
0010
0100
1000
,
0022
0000
0033
0000
,
0220
0000
0330
0000
,
1100
0000
0100
0010
0000
0100
0000
0010
,
0000
0000
0000
0000
,
0000
0000
0000
0000
0000
0110
1100
0000
,
1100
0100
0010
0100
0010
0001
0010
0000
,
0010
0000
0001
0000
0000
0000
0020
0000
0000
0000
0030
0200
0000
0000
0000
0300
,
0002
0000
0000
0000
,
0003
0000
0000
0000
;
